CCCP Project Forums

Please login or register.

Login with username, password and session length
Advanced search  
Pages: 1 2 [3] 4 5 ... 10
 21 
 on: October 12, 2014, 11:45:06 AM 
Started by DriveSD - Last post by Bl@ckIce
this one:

http://www.codecguide.com/download_other.htm#codectweaktool

 22 
 on: October 12, 2014, 11:31:17 AM 
Started by n99 - Last post by Bl@ckIce

Code: [Select]
Build information:
    Version:            1.7.6.253 (913252e) (blitzkrieg) (master@7fcd384)
    Compiler:           MSVC 2013 Update 3 (SSE)
    Build date:         Sep 21 2014 21:13:04


it seems you are on beta build, you got the same pb with the latest stable version ?

if not, this is something something you should report on the beta test thread

 23 
 on: October 11, 2014, 10:50:13 AM 
Started by DriveSD - Last post by DriveSD
Any particular Codec Tweak Tool you would recommend or is the name exactly what it is?

 24 
 on: October 10, 2014, 12:31:10 PM 
Started by n99 - Last post by n99
Using:

Code: [Select]
MPC-HC (CCCP Build)
-------------------

Build information:
    Version:            1.7.6.253 (913252e) (blitzkrieg) (master@7fcd384)
    Compiler:           MSVC 2013 Update 3 (SSE)
    Build date:         Sep 21 2014 21:13:04

LAV Filters:
    LAV Splitter:       0.62.0.0
    LAV Video:          0.62.0.0
    LAV Audio:          0.62.0.0
    FFmpeg compiler:    MinGW-w64 GCC 4.8.3

Operating system:
    Name:               Windows NT 5.1 (build 2600, Service Pack 3)
    Version:            5.1

Hardware:
    CPU:                Intel(R) Atom(TM) CPU  330   @ 1.60GHz
    GPU:                NVIDIA ION (driver version: 6.14.13.4052)


File:

Yokohama Kaidashi Kikou - 1 - Morning 2 2 - Afternoon 1 1 - Yielding [BakaMX](878FE75D).ogm


MediaInfo:

Code: [Select]
General
Complete name                  : J:\Yokohama Kaidashi Kikou - 1 - Morning 2 2 - Afternoon 1 1 - Yielding [BakaMX](878FE75D).ogm
Format                         : OGG
File size                      : 311 MiB
Duration                       : 29mn 1s
Overall bit rate               : 1 499 Kbps
Movie name                     : Yokohama Kaimono Kikou
Written by                     : BakaMX no Oyaji
Description                    : Sexy androids, guns, yuri undertones set in post-apolyptical world.
Copyright                      : Hitoshi Ashinano

Video
ID                             : 0 (0x0)
Format                         : MPEG-4 Visual
Codec ID                       : DIV3
Codec ID/Hint                  : DivX 3 Low
Duration                       : 29mn 1s
Bit rate                       : 1 078 Kbps
Width                          : 632 pixels
Height                         : 480 pixels
Display aspect ratio           : 4:3
Frame rate                     : 24.000 fps
Color space                    : YUV
Chroma subsampling             : 4:2:0
Compression mode               : Lossy
Bits/(Pixel*Frame)             : 0.148
Stream size                    : 224 MiB (72%)

Audio
ID                             : 1 (0x1)
Format                         : ADPCM
Codec ID                       : 2
Duration                       : 29mn 1s
Bit rate                       : 352.8 Kbps
Channel(s)                     : 2 channels
Sampling rate                  : 44.1 KHz
Stream size                    : 73.2 MiB (24%)
Writing library                : libVorbis 1.0 (UTC 2002-07-17)


Filters:

Code: [Select]
  - Default DirectSound Device
  - Enhanced Video Renderer (custom presenter)
  - Audio Switcher
  - LAV Video Decoder
  - LAV Audio Decoder
  - LAV Splitter Source


Problems:

First frame shown, nothing else (the video doesn't play, and the audio isn't audible). Resizing from smaller size to larger size leaves the newly shown parts (at the right and the bottom) transparent, that is, the Explorer/Desktop/... is visible. Scrolling shows the new frame, but nothing else again. Sometimes the new frame is only shown after resizing.

 25 
 on: October 09, 2014, 04:32:58 AM 
Started by DriveSD - Last post by namaiki
Have you tried reinstalling CCCP? Try open the CCCP Settings application on the Start menu and do a reset of settings.

If that doesn't work, try download the Codec Tweak Tool. Hopefully it has an option to reset those settings.

 26 
 on: October 07, 2014, 04:17:04 PM 
Started by DriveSD - Last post by DriveSD
I have been a long time user of CCCP.  Just today, I wanted to try to see subtitles in movies and one of the codecs I used for this purpose was shark007.  After shark007 was installed, I noticed that I cannot play any mkv files.  To be more precise, no video and audio, it just remains as a black screen when playing on WMP 12 (which I had no problems using together with CCCP until shark007).  Is there anyway I can fix this problem?  Because good majority of my anime that I watch are in mkv format.  My OS is Windows 7 Home edition.  If you need any more information, please tell so I can add the appropriate information.

(click to show/hide)

 27 
 on: October 06, 2014, 12:09:03 PM 
Started by Mechwarrior21 - Last post by Ryooshi
Try downgrading your Nvidia GPU driver to a version older than 344.11 or deactivating the Px10/Px16 output formats in LAV Video.

There is no point in reverting the nvidia driver, disabling P010 in LAV Video settings is all that is needed until nvidia fixes the issue in a future driver revision.

I had just joined the forums to post about this same green screen issue when I found this thread.  Cpuroast's solution worked for me.  I also have an NVidia card with the 344.11 drivers installed.  Thanks!

 28 
 on: October 05, 2014, 10:08:15 AM 
Started by HC - Last post by HC
http://mpc-hc.org/2014/10/05/1.7.7-released/

http://mpc-hc.org/changelog/

http://mpc-hc.org/downloads/

 29 
 on: October 03, 2014, 07:21:42 AM 
Started by Mechwarrior21 - Last post by Driftwood_WV
Could you please tell me what items are listed in the Play -> Filters menu when you have that video open?

(click to show/hide)

 30 
 on: October 02, 2014, 08:16:37 PM 
Started by Mechwarrior21 - Last post by namaiki
Could you please tell me what items are listed in the Play -> Filters menu when you have that video open?

Pages: 1 2 [3] 4 5 ... 10

Page created in 0.085 seconds with 16 queries.